<?xml version="1.0" standalone="no"?>
<!DOCTYPE svg PUBLIC "-//W3C//DTD SVG 1.1//EN" "http://www.w3.org/Graphics/SVG/1.1/DTD/svg11.dtd" >
<svg xmlns="http://www.w3.org/2000/svg">
<metadata>Generated by IcoMoon</metadata>
<defs>
<font id="icomoon" horiz-adv-x="1024">
<font-face units-per-em="1024" ascent="960" descent="-64" />
<missing-glyph horiz-adv-x="1024" />
<glyph unicode="&#x20;" horiz-adv-x="512" d="" />
<glyph unicode="&#xe900;" glyph-name="Arrow-left1" horiz-adv-x="1186" d="M1185.684 421.053c0-22.738-20.211-40.421-42.949-40.421h-952.42l353.687-378.945c15.155-15.161 15.155-40.421-2.528-55.582-7.58-7.578-17.686-10.105-27.791-10.105-12.631 0-22.737 2.528-30.316 12.633l-419.368 444.632c-15.158 15.155-15.158 37.893 0 53.051l419.368 444.632c15.158 17.684 40.421 17.684 58.107 2.526 17.683-15.157 17.683-40.421 2.528-55.578l-353.687-376.421h952.42c22.738 0 42.949-20.211 42.949-40.421z" />
<glyph unicode="&#xe901;" glyph-name="Arrow-right-11" horiz-adv-x="1186" d="M1119.157 393.265l-419.366-444.632c-7.578-10.105-20.211-12.633-30.316-12.633s-20.211 2.528-27.794 10.105c-17.683 15.161-17.683 40.421-2.522 55.582l353.684 378.945h-952.422c-22.737 0-40.421 17.683-40.421 37.893 0 20.212 17.684 42.949 40.421 42.949h952.422l-353.684 376.421c-15.161 15.157-15.161 40.421 2.522 55.578 17.688 15.158 42.949 15.158 58.109-2.526l419.366-444.632c15.161-15.158 15.161-37.896 0-53.051z" />
<glyph unicode="&#xe902;" glyph-name="Arrow-up1" horiz-adv-x="931" d="M873.453 513.455c-6.544-8.727-15.272-13.091-23.999-13.091s-17.455 4.364-23.999 10.909l-325.092 305.455v-822.546c0-19.638-17.455-37.092-34.909-37.092s-34.909 17.455-34.909 37.092v822.546l-327.273-305.455c-13.091-13.091-34.909-13.091-48 2.182s-13.091 37.091 2.182 50.182l384 362.182c13.090 13.091 32.727 13.091 45.82 0l384-362.182c15.272-13.091 15.272-34.909 2.178-50.182z" />
<glyph unicode="&#xe903;" glyph-name="bars" horiz-adv-x="1303" d="M0 913.455c0 23.273 20.364 46.545 46.545 46.545h1210.182c23.273 0 46.545-23.273 46.545-46.545 0-26.182-23.273-46.545-46.545-46.545h-1210.182c-26.182 0-46.545 20.364-46.545 46.545zM0 448c0 23.273 20.364 46.545 46.545 46.545h1210.182c23.273 0 46.545-23.273 46.545-46.545 0-26.182-23.273-46.545-46.545-46.545h-1210.182c-26.182 0-46.545 20.364-46.545 46.545zM1256.727-64h-1210.182c-26.182 0-46.545 20.368-46.545 46.545 0 23.273 20.364 46.545 46.545 46.545h1210.182c23.273 0 46.545-23.273 46.545-46.545 0-26.177-23.273-46.545-46.545-46.545z" />
<glyph unicode="&#xe904;" glyph-name="briefcase" d="M368 821.333c-10 0-16-8-16-16v-80h320v80c0 8-8 16-16 16h-288zM256 805.333c0 60 50 112 112 112h288c60 0 112-52 112-112v-80h128c69.999 0 128-58 128-128v-192h-1024v192c0 70 56 128 128 128h128v80zM1024 341.333v-256c0-72.004-58.001-128-128-128h-768c-72 0-128 55.996-128 128v256h384v-64c0-36 28-64 64-64h128c34 0 64 28 64 64v64h384z" />
<glyph unicode="&#xe905;" glyph-name="calculator" horiz-adv-x="768" d="M384 272c-28 0-48 20-48 48 0 26 20 48 48 48 26 0 48-22 48-48 0-28-22-48-48-48zM384 448c-28 0-48 20-48 48 0 26 20 48 48 48 26 0 48-22 48-48 0-28-22-48-48-48zM560 272c-28 0-48 20-48 48 0 26 20 48 48 48 26 0 48-22 48-48 0-28-22-48-48-48zM560 448c-28 0-48 20-48 48 0 26 20 48 48 48 26 0 48-22 48-48 0-28-22-48-48-48zM560 96c-28 0-48 20-48 48 0 25.997 20 48 48 48 26 0 48-22.003 48-48 0-28-22-48-48-48zM208 96c-28 0-48 20-48 48 0 25.997 20 48 48 48h160c26 0 48-22.003 48-48 0-28-22-48-48-48h-160zM640 960c70.003 0 128-58 128-128v-768c0-72-57.997-128-128-128h-512c-72 0-128 56-128 128v768c0 70 56 128 128 128h512zM672 64v544h-576v-544c0-17.997 14-32 32-32h512c16 0 32 14.003 32 32zM672 704v128c0 16-16 32-32 32h-512c-18 0-32-16-32-32v-128h576zM208 448c-28 0-48 20-48 48 0 26 20 48 48 48 26 0 48-22 48-48 0-28-22-48-48-48zM208 272c-28 0-48 20-48 48 0 26 20 48 48 48 26 0 48-22 48-48 0-28-22-48-48-48z" />
<glyph unicode="&#xe906;" glyph-name="calendar2" horiz-adv-x="866" d="M177.231 861.538c0 31.385 25.846 59.077 59.077 59.077 31.385 0 59.077-27.692 59.077-59.077v-59.077h236.308v59.077c0 31.385 25.846 59.077 59.077 59.077 31.385 0 59.077-27.692 59.077-59.077v-59.077h88.615c48 0 88.615-40.615 88.615-88.615v-88.615h-827.077v88.615c0 48 38.769 88.615 88.615 88.615h88.615v59.077zM827.077 566.154v-502.154c0-49.845-40.615-88.615-88.615-88.615h-649.846c-49.846 0-88.615 38.77-88.615 88.615v502.154h827.077z" />
<glyph unicode="&#xe907;" glyph-name="calendar-11" horiz-adv-x="896" d="M304 832h288v80c0 26 20 48 48 48 25.997 0 48-22 48-48v-80h80c70.003 0 128-58 128-128v-640c0-72-57.997-128-128-128h-640c-72 0-128 56-128 128v640c0 70 56 128 128 128h80v80c0 26 20 48 48 48 26 0 48-22 48-48v-80zM96 64c0-17.997 14-32 32-32h640c16 0 32 14.003 32 32v512h-704v-512z" />
<glyph unicode="&#xe908;" glyph-name="chevron-right1" horiz-adv-x="614" d="M146.2 918.4l402.602-420.2c8.796-11 15.396-24.2 15.396-37.4s-6.6-26.399-15.396-35.2l-402.602-420.198c-19.8-22.001-55-22.001-74.8-2.202-22 19.799-22 52.803-2.2 74.798l369.6 385.002-369.6 382.8c-19.8 19.8-19.8 55 2.2 74.8 19.8 19.8 55 19.8 74.8-2.2z" />
<glyph unicode="&#xe909;" glyph-name="chevron-up1" horiz-adv-x="1769" d="M60 143.636l764 732c24.001 20 48 32 72 32s44.004-8 64-24l763.997-732c40.001-40 40.001-100 4.003-135.997-35.998-40.001-96.005-40.001-135.997-4.003l-696.003 664-704-671.996c-36-36.008-100-36.008-136 3.994s-36 100.003 4 136.003z" />
<glyph unicode="&#xe90a;" glyph-name="circle-info" horiz-adv-x="956" d="M477.867 908.8c263.202 0 477.867-214.667 477.867-477.867 0-265.066-214.665-477.867-477.867-477.867-265.066 0-477.867 212.801-477.867 477.867 0 263.2 212.8 477.867 477.867 477.867zM477.867 42.667c212.801 0 388.267 173.602 388.267 388.267 0 212.8-175.466 388.267-388.267 388.267-214.667 0-388.267-175.466-388.267-388.267 0-214.665 173.6-388.267 388.267-388.267zM552.533 281.6c24.267 0 44.8-20.535 44.8-44.803 0-26.132-20.533-44.797-44.8-44.797h-149.333c-26.133 0-44.8 18.664-44.8 44.797 0 24.269 18.667 44.803 44.8 44.803h29.867v119.467h-14.933c-26.133 0-44.8 18.667-44.8 44.8 0 24.267 18.667 44.8 44.8 44.8h59.733c24.267 0 44.8-20.533 44.8-44.8v-164.267h29.867zM477.867 550.4c-33.6 0-59.733 26.133-59.733 59.733 0 31.733 26.133 59.733 59.733 59.733 31.733 0 59.733-28 59.733-59.733 0-33.6-28-59.733-59.733-59.733z" />
<glyph unicode="&#xe90b;" glyph-name="close" d="M948.364 753.455c37.818 34.909 37.818 96 0 130.909-34.909 37.818-96 37.818-130.909 0l-305.455-305.455-308.364 305.455c-34.909 37.818-96 37.818-130.909 0-37.818-34.909-37.818-96 0-130.909l305.455-305.455-305.455-308.364c-37.818-34.909-37.818-96 0-130.909 34.909-37.818 96-37.818 130.909 0l308.364 305.455 305.455-305.455c34.909-37.818 96-37.818 130.909 0 37.818 34.909 37.818 96 0 130.909l-305.455 308.364 305.455 305.455z" />
<glyph unicode="&#xe90c;" glyph-name="delete" d="M512-64c-284 0-512 228-512 512 0 282 228 512 512 512 281.997 0 512-230 512-512 0-284-230.003-512-512-512zM368 496c-28 0-48-22-48-48 0-28 20-48 48-48h288c25.997 0 48 20 48 48 0 26-22.003 48-48 48h-288z" />
<glyph unicode="&#xe90d;" glyph-name="engine1" horiz-adv-x="1707" d="M1066.667 832c34.668 0 64 26.667 64 64 0 34.667-29.332 64-64 64h-512c-37.333 0-64-29.333-64-64 0-37.333 26.667-64 64-64h192v-85.333h-405.333c-48 0-85.333-40-85.333-85.333v-149.333h-128v192c0 34.667-29.333 64-64 64-37.333 0-64-29.333-64-64v-512c0-37.33 26.667-64 64-64 34.667 0 64 26.67 64 64v192h128v-192c0-48.003 37.333-85.333 85.333-85.333h117.333l85.333-106.667c32-42.667 82.665-64 133.33-64h517.336c93.332 0 170.667 74.667 170.667 170.667v386.667c0 50.666-24.001 101.333-64 133.333l-103.999 82.667c-29.338 24-66.668 37.333-106.667 37.333h-216.001v85.333h192zM768 362.667c-48.003 0-85.333 37.333-85.333 85.333 0 45.334 37.33 85.333 85.333 85.333 45.335 0 85.333-40 85.333-85.333 0-48-39.999-85.333-85.333-85.333zM597.333 448c0-48-40-85.333-85.333-85.333-48 0-85.333 37.333-85.333 85.333 0 45.334 37.333 85.333 85.333 85.333 45.334 0 85.333-40 85.333-85.333zM1024 362.667c-48.003 0-85.333 37.333-85.333 85.333 0 45.334 37.33 85.333 85.333 85.333 45.335 0 85.333-40 85.333-85.333 0-48-39.999-85.333-85.333-85.333zM1536 618.667c-48.003 0-85.333-40-85.333-85.333v-512c0-48.003 37.33-85.333 85.333-85.333h85.333c45.335 0 85.333 37.33 85.333 85.333v512c0 45.334-39.999 85.333-85.333 85.333h-85.333z" />
<glyph unicode="&#xe90e;" glyph-name="envelope" horiz-adv-x="1365" d="M128 960h1109.333c69.333 0 128-58.667 128-128 0-42.667-21.333-80-53.333-104l-578.667-434.667c-32-24-72-24-104 0l-578.667 434.667c-32 24-50.667 61.333-50.667 104 0 69.333 56 128 128 128zM0 661.333l578.667-437.333c61.333-45.333 144-45.333 205.333 0l581.333 437.333v-554.667c0-96-77.329-170.667-170.667-170.667h-1024c-96 0-170.667 74.667-170.667 170.667v554.667z" />
<glyph unicode="&#xe90f;" glyph-name="facebook1" horiz-adv-x="539" d="M494.947 400.842l26.526 174.316h-168.631v113.684c0 49.263 22.737 94.737 98.526 94.737h77.684v149.684c0 0-70.106 13.263-136.421 13.263-138.316 0-229.263-85.263-229.263-236.842v-134.526h-155.368v-174.316h155.368v-424.421h189.474v424.421h142.105z" />
<glyph unicode="&#xe910;" glyph-name="file-invoice" horiz-adv-x="709" d="M118.154 920.615h295.385v-236.308c0-33.231 25.846-59.077 59.077-59.077h236.308v-531.692c0-66.465-53.539-118.154-118.154-118.154h-472.615c-66.462 0-118.154 51.688-118.154 118.154v708.923c0 64.615 51.692 118.154 118.154 118.154zM472.615 920.615l236.308-236.308h-236.308v236.308zM147.692 802.462c-16.616 0-29.538-14.769-29.538-29.538 0-16.616 12.923-29.538 29.538-29.538h118.154c14.769 0 29.538 12.923 29.538 29.538 0 14.769-14.769 29.538-29.538 29.538h-118.154zM147.692 684.308c-16.616 0-29.538-14.769-29.538-29.538 0-16.616 12.923-29.538 29.538-29.538h118.154c14.769 0 29.538 12.923 29.538 29.538 0 14.769-14.769 29.538-29.538 29.538h-118.154zM177.231 507.077c-33.231 0-59.077-27.692-59.077-59.077v-118.154c0-33.231 25.846-59.077 59.077-59.077h354.462c31.385 0 59.077 25.846 59.077 59.077v118.154c0 31.385-27.692 59.077-59.077 59.077h-354.462zM177.231 448h354.462v-118.154h-354.462v118.154zM443.077 152.615c-16.616 0-29.538-14.769-29.538-29.538 0-16.612 12.923-29.538 29.538-29.538h118.154c14.769 0 29.538 12.926 29.538 29.538 0 14.769-14.769 29.538-29.538 29.538h-118.154z" />
<glyph unicode="&#xe911;" glyph-name="globe" d="M512 960c281.997 0 512-230 512-512 0-284-230.003-512-512-512-284 0-512 228-512 512 0 282 228 512 512 512zM512 0c32 0 80 28 122 113.997 20.003 40 38 88 47.997 142.003h-341.997c10-54.003 28-102.003 48-142.003 42-85.997 90-113.997 124-113.997zM328 320h366.003c5.997 40 9.997 82 9.997 128 0 44-4 86-9.997 128h-366.003c-6-42-8-84-8-128 0-46 2-88 8-128zM681.997 640c-9.997 54-27.994 100-47.997 140-42 86-90 116-122 116-34 0-82-30-124-116-20-40-38-86-48-140h341.997zM758.003 576c5.997-42 9.997-84 9.997-128 0-46-4-88-9.997-128h181.997c12 40 20 82 20 128 0 44-8 86-20 128h-181.997zM654.003 872c41.997-56 75.994-138 93.997-232h168c-52 108-146.003 192-261.997 232zM368 872c-116-40-210-124-262-232h168c18 94 52 176 94 232zM64 448c0-46 6-88 18-128h182c-6 40-8 82-8 128 0 44 2 86 8 128h-182c-12-42-18-84-18-128zM916 256h-168c-18.003-96-52-176-93.997-233.997 115.994 40 209.997 123.994 261.997 233.997zM274 256h-168c52-110.003 146-193.997 262-233.997-42 57.997-76 137.997-94 233.997z" />
<glyph unicode="&#xe912;" glyph-name="icons8-360-view-96-11" d="M0 960h1024v-1024h-1024v1024z" />
<glyph unicode="&#xe913;" glyph-name="instagram1" horiz-adv-x="964" d="M481.882 706.588c-135.529 0-243.529-110.118-243.529-243.529 0-135.529 108-243.531 243.529-243.531 133.409 0 243.531 108.002 243.531 243.531 0 133.412-110.122 243.529-243.531 243.529zM481.882 304.236c-86.824 0-158.824 69.881-158.824 158.822 0 86.824 69.883 156.706 158.824 156.706 86.824 0 156.708-69.882 156.708-156.706 0-88.941-69.884-158.822-156.708-158.822zM791.058 715.059c0-31.764-25.413-57.176-57.175-57.176-31.768 0-57.175 25.411-57.175 57.176s25.407 57.177 57.175 57.177c31.762 0 57.175-25.411 57.175-57.177zM952.001 657.883c-4.235 76.235-21.179 144-76.234 199.058-55.061 55.059-122.826 72-199.060 76.235-78.355 4.235-313.413 4.235-391.766 0-76.236-4.235-141.882-21.177-199.059-76.235-55.059-55.059-72-122.823-76.235-199.058-4.235-78.353-4.235-313.415 0-391.763 4.235-76.24 21.177-141.884 76.235-199.060 57.177-55.061 122.823-71.999 199.059-76.234 78.353-4.241 313.411-4.241 391.766 0 76.234 4.235 143.998 21.173 199.060 76.234 55.055 57.175 71.999 122.82 76.234 199.060 4.235 78.348 4.235 313.41 0 391.763zM850.354 183.531c-14.824-42.357-48.706-74.12-88.943-91.058-63.53-25.413-211.763-19.064-279.528-19.064-69.883 0-218.117-6.349-279.529 19.064-42.353 16.938-74.118 48.7-91.059 91.058-25.412 61.41-19.059 209.645-19.059 279.528 0 67.765-6.353 216 19.059 279.529 16.941 40.235 48.706 72 91.059 88.942 61.412 25.411 209.647 19.058 279.529 19.058 67.765 0 215.998 6.353 279.528-19.058 40.237-14.824 71.999-48.706 88.943-88.942 25.413-63.529 19.058-211.764 19.058-279.529 0-69.883 6.355-218.118-19.058-279.528z" />
<glyph unicode="&#xe914;" glyph-name="linkedin-in1" horiz-adv-x="956" d="M213.333-64h-198.4v637.867h198.4v-637.867zM113.067 659.2c-61.867 0-113.067 53.333-113.067 117.333 0 87.467 93.867 142.933 170.667 98.133 36.267-19.2 57.6-57.6 57.6-98.133 0-64-51.2-117.333-115.2-117.333zM953.603-64h-196.267v309.33c0 74.67-2.137 168.537-104.537 168.537s-117.333-78.933-117.333-162.133v-315.733h-198.4v637.867h189.867v-87.467h2.133c27.733 49.067 91.733 102.4 187.733 102.4 200.533 0 238.933-132.267 238.933-302.933v-349.867h-2.13z" />
<glyph unicode="&#xe915;" glyph-name="localisation" horiz-adv-x="723" d="M512 598.588c0-84.706-67.765-150.588-150.588-150.588-84.706 0-150.588 65.882-150.588 150.588 0 82.824 65.882 150.588 150.588 150.588 82.824 0 150.588-67.765 150.588-150.588zM361.412 508.235c48.941 0 90.353 39.529 90.353 90.353 0 48.941-41.412 90.353-90.353 90.353-50.824 0-90.353-41.412-90.353-90.353 0-50.824 39.529-90.353 90.353-90.353zM722.824 598.588c0-165.647-220.235-457.415-318.118-579.765-22.588-28.238-65.882-28.238-88.471 0-97.882 122.35-316.235 414.118-316.235 579.765 0 199.529 160 361.412 361.412 361.412 199.529 0 361.412-161.882 361.412-361.412zM361.412 899.765c-167.529 0-301.176-135.529-301.176-301.176 0-30.118 9.412-69.647 30.118-120.471 20.706-48.941 48.941-101.647 82.824-154.353 64-103.526 139.294-203.294 188.235-263.529 47.059 60.235 122.353 160.003 186.353 263.529 33.882 52.706 62.118 105.412 82.827 154.353 20.703 50.824 31.997 90.353 31.997 120.471 0 165.647-135.529 301.176-301.176 301.176z" />
<glyph unicode="&#xe916;" glyph-name="location-dot1" horiz-adv-x="723" d="M404.706 18.824c97.882 122.35 318.118 414.118 318.118 579.765 0 199.529-161.882 361.412-361.412 361.412s-361.412-161.882-361.412-361.412c0-165.647 220.235-457.415 316.235-579.765 22.588-28.238 65.882-28.238 88.471 0zM361.412 478.118c-67.765 0-120.471 52.706-120.471 120.471 0 65.882 52.706 120.471 120.471 120.471 65.882 0 120.471-54.588 120.471-120.471 0-67.765-54.588-120.471-120.471-120.471z" />
<glyph unicode="&#xe917;" horiz-adv-x="761" d="M754.872 566.154c0-171.486-228-473.54-329.334-600.206-23.384-29.231-68.204-29.231-91.588 0-99.386 126.666-327.386 428.72-327.386 600.206 0 206.564 167.59 374.154 374.154 374.154s374.154-167.59 374.154-374.154z" />
<glyph unicode="&#xe918;" horiz-adv-x="761" d="M333.95-34.052l-41.314-32.414 0.152-0.197 0.155-0.194 41.007 32.805zM702.359 566.154c0-32.571-11.183-76.007-33.078-127.9-21.541-51.053-51.73-106.336-85.753-161.414-68.025-110.122-148.837-215.389-198.995-278.087l82.012-65.61c51.174 63.971 135.029 173.064 206.336 288.503 35.646 57.706 68.789 118.004 93.166 175.779 24.019 56.929 41.338 115.557 41.338 168.729h-105.026zM384.533-1.247c-1.121-1.399-2.694-2.213-4.789-2.213s-3.671 0.814-4.789 2.213l-82.012-65.61c44.407-55.509 129.195-55.509 173.602 0l-82.012 65.61zM375.262-1.636c-49.383 62.942-129.738 168.233-197.555 278.407-33.916 55.096-64.055 110.392-85.573 161.459-21.873 51.909-33.057 95.348-33.057 127.924h-105.026c0-53.167 17.316-111.792 41.299-168.708 24.338-57.759 57.41-118.046 92.918-175.729 71.029-115.392 154.368-224.458 204.368-288.182l82.626 64.83zM59.077 566.154c0 177.562 144.079 321.641 321.641 321.641v105.026c-235.566 0-426.667-191.1-426.667-426.667h105.026zM380.718 887.795c177.562 0 321.641-144.079 321.641-321.641h105.026c0 235.566-191.099 426.667-426.667 426.667v-105.026z" />
<glyph unicode="&#xe919;" horiz-adv-x="761" d="M470.462 724.205c4.306 10.051 0.717 21.538-7.898 27.282-8.615 6.462-20.102 5.744-28.719-0.718l-183.794-160.822c-7.18-6.459-9.333-16.513-5.744-25.844 2.872-8.615 11.487-14.36 21.538-14.36h79.693l-55.283-129.231c-4.309-10.051-0.719-21.538 7.898-27.28 8.615-6.462 20.102-5.745 28.717 0.717l183.795 160.821c7.181 6.462 9.334 16.513 6.462 25.847-3.589 8.615-12.204 14.36-21.538 14.36h-80.41l55.283 129.23z" />
<glyph unicode="&#xe91a;" glyph-name="map-location-dot" horiz-adv-x="1103" d="M772.923 699.077c0-16.616-3.693-35.077-11.077-53.539-9.231-33.23-27.693-72-49.847-108.923-5.538-11.077-11.077-20.307-18.461-29.538-7.385-12.923-16.616-25.846-24-38.769v-1.846c-35.077-49.847-68.308-94.154-92.308-121.847-12.923-18.462-40.615-18.462-53.538 0-24 27.692-57.231 72-90.462 121.847-35.077 49.846-68.308 107.077-86.769 156.922-1.846 3.693-3.693 7.385-5.539 11.077-7.384 24-11.077 44.308-11.077 64.615 0 7.385 0 16.616 0 24 12.923 110.769 107.077 197.538 221.538 197.538 121.847 0 221.538-99.692 221.538-221.538zM551.385 640c40.615 0 73.846 31.385 73.846 73.846 0 40.615-33.231 73.846-73.846 73.846-42.461 0-73.846-33.231-73.846-73.846 0-42.461 31.385-73.846 73.846-73.846zM669.538 364.923c24 33.231 51.692 73.846 77.539 114.462 3.692 5.538 7.384 11.077 11.077 16.616v-413.537l236.308 84.921v467.077l-201.232-72.001c3.694 7.385 7.389 16.616 11.075 25.847 11.083 25.847 20.315 53.539 24.001 81.231l193.851 70.153c14.769 5.539 29.538 3.693 40.613-5.538 12.918-7.385 20.307-22.154 20.307-35.077v-561.231c0-20.307-12.926-36.919-29.538-42.464l-324.923-118.154c-11.077-3.686-20.307-3.686-31.385 0l-308.307 112.616-310.154-112.616c-14.769-5.537-29.538-3.686-40.615 5.545-12.923 7.381-18.462 22.15-18.462 36.919v561.231c0 18.462 11.077 35.077 27.692 40.615l223.385 81.232c0-1.846 0-3.693 0-3.693 0-29.538 5.538-57.231 14.769-84.923l-177.231-64.616v-467.075l236.308 84.921v328.616c1.846-5.539 5.538-11.077 9.231-16.616 25.846-40.616 53.539-81.231 79.384-114.462v-197.538l236.308-84.921v282.459z" />
<glyph unicode="&#xe91b;" glyph-name="money" d="M544 492c10-2 36-8 48-10 16-4 26-22 22-40-4-16-22-26-40-22-8 2-34 8-44 10-26 4-46 0-62-6-14-8-20-16-20-22-2-10 0-14 0-16 2-2 4-6 10-10 14-10 34-16 62-24h2c24-8 56-18 78-33.997 14-8 24-22.003 32-38.003s8-33.997 6-54.003c-6-33.997-30-57.997-60-72-10-3.994-22-8-34-9.997v-16c0-17.997-16-32-32-32-18 0-32 14.003-32 32v17.997c-20 4.006-48 14.003-66 20.006-4 0-6 1.997-10 1.997-16 6.003-24 24-20 41.997 6 16 24 26.003 42 20.006 2-2.003 8-4.006 12-4.006 18-8 40-13.997 54-16 26-3.994 48-1.997 62 4.006 12 5.997 18 11.994 20 24 2 8 0 13.997 0 16-2 3.994-6 8-10 11.994-14 10.003-34 16-62 24l-4 2.003c-24 8-54 16-76 32-12 8-24 20-32 34-6 18-8 36-6 54 6 34 30 56 58 70 12 4 24 8 38 10v20c0 16 14 32 32 32 16 0 32-16 32-32v-20zM358 718l-116 166c-22 32 2 76 40 76h458c37.997 0 61.997-44 40-76l-116-166c16-10 33.997-22 54.003-36 121.997-90 305.997-270 305.997-554 0-105.997-86.003-192-192-192h-640c-108 0-192 86.003-192 192 0 284 182 464 304 554 20 14 38 26 54 36zM392 664c-110-70-328-242-328-536 0-72 56-128 128-128h640c70.003 0 128 56 128 128 0 294-220 466-330 536l-10 8h-218l-10-8zM598 736l112.003 160h-398.003l112-160h174z" />
<glyph unicode="&#xe91c;" glyph-name="phone" d="M308.706 852.706l75.294-180.706c13.176-30.118 5.647-65.882-20.706-86.588l-92.235-77.176c62.118-131.765 169.412-239.062 301.176-301.176l77.173 92.232c20.709 26.359 56.477 33.888 86.594 20.709l180.706-75.294c35.762-13.179 52.706-52.706 43.291-88.474l-45.176-165.647c-9.415-31.997-37.647-54.585-71.529-54.585-466.824 0-843.294 376.471-843.294 843.294 0 33.882 22.588 62.118 54.588 71.529l165.647 45.176c35.765 9.412 75.294-7.529 88.471-43.294z" />
<glyph unicode="&#xe91d;" glyph-name="play" horiz-adv-x="768" d="M145.999 882c-29.999 18-67.999 18-97.999 0-30-16-48-48-48-82v-704c0-36 18-68 48-84 30-18.001 68-16 97.999 2.001l576 352c28.001 16 46.001 48 46.001 81.999 0 32-17.999 64-46.001 81.999l-576 352.001z" />
<glyph unicode="&#xe91e;" glyph-name="plus1" horiz-adv-x="1075" d="M1036.8 448c0-33.597-26.399-57.6-57.6-57.6h-384v-384c0-33.597-26.399-60.001-57.6-60.001-33.6 0-57.6 26.404-57.6 60.001v384h-384c-33.6 0-57.6 24.003-57.6 55.199 0 33.602 24 60.001 57.6 60.001h384v384c0 31.2 24 55.2 57.6 55.2 31.201 0 57.6-24 57.6-55.2v-384h384c31.201 0 57.6-26.4 57.6-57.6z" />
<glyph unicode="&#xe91f;" glyph-name="plus2" d="M512-64c-284 0-512 228-512 512 0 282 228 512 512 512 281.997 0 512-230 512-512 0-284-230.003-512-512-512zM464 272c0-28 20-48 48-48 26 0 48 20 48 48v128h128c25.997 0 48 20 48 48 0 26-22.003 48-48 48h-128v128c0 26-22 48-48 48-28 0-48-22-48-48v-128h-128c-28 0-48-22-48-48 0-28 20-48 48-48h128v-128z" />
<glyph unicode="&#xe920;" glyph-name="research" horiz-adv-x="1088" d="M1014.003-9.997c11.994-12.006 11.994-34.003 0-46.003-6.003-6.003-14.003-8-22.003-8-9.997 0-17.997 1.997-25.997 8l-282.003 284c-74-64-168-100-270-100-228 0-414 185.997-414 416 0 228 184 416 414 416 227.997 0 416.003-188 416.003-416 0-104-36.006-198-100.006-272l284.006-281.997zM416 192c194 0 352 156 352 352 0 194-158 352-352 352-196 0-352-158-352-352s156-352 352-352z" />
<glyph unicode="&#xe922;" glyph-name="youtube1" horiz-adv-x="1536" d="M1463.996 797.333c-15.991 64-66.662 114.667-128 130.667-114.662 32-567.996 32-567.996 32s-456 0-570.667-32c-61.333-16-112-66.667-128-130.667-32-112-32-352-32-352s0-237.333 32-351.996c16-64 66.667-112.009 128-128 114.667-29.338 570.667-29.338 570.667-29.338s453.333 0 567.996 29.338c61.338 15.991 112.009 64 128 128 32 114.662 32 351.996 32 351.996s0 240-32 352zM618.667 229.333v432l378.667-216-378.667-216z" />
<glyph unicode="&#xe923;" glyph-name="Arrow-left" d="M1024 424.727c0-19.638-17.455-34.909-37.092-34.909h-822.544l305.457-327.27c13.089-13.093 13.089-34.909-2.183-48.002-6.547-6.544-15.274-8.727-24.001-8.727-10.909 0-19.636 2.183-26.182 10.91l-362.182 384c-13.091 13.089-13.091 32.726 0 45.817l362.182 384c13.091 15.273 34.909 15.273 50.183 2.182 15.272-13.090 15.272-34.909 2.183-48l-305.457-325.091h822.544c19.638 0 37.092-17.455 37.092-34.909z" />
<glyph unicode="&#xe924;" glyph-name="Arrow-right-1" d="M966.544 400.728l-362.179-384c-6.544-8.727-17.455-10.91-26.182-10.91s-17.455 2.183-24.003 8.727c-15.272 13.093-15.272 34.909-2.178 48.002l305.455 327.27h-822.547c-19.636 0-34.909 15.272-34.909 32.726s15.273 37.092 34.909 37.092h822.547l-305.455 325.091c-13.093 13.090-13.093 34.909 2.178 48 15.276 13.091 37.092 13.091 50.185-2.182l362.179-384c13.093-13.091 13.093-32.728 0-45.817z" />
<glyph unicode="&#xe925;" glyph-name="Arrow-up" d="M919.999 513.455c-6.544-8.727-15.272-13.091-23.999-13.091s-17.455 4.364-23.999 10.909l-325.092 305.455v-822.546c0-19.638-17.455-37.092-34.909-37.092s-34.909 17.455-34.909 37.092v822.546l-327.273-305.455c-13.091-13.091-34.909-13.091-48 2.182s-13.091 37.091 2.182 50.182l384 362.182c13.090 13.091 32.727 13.091 45.82 0l384-362.182c15.272-13.091 15.272-34.909 2.178-50.182z" />
<glyph unicode="&#xe926;" glyph-name="calendar-1" d="M368 832h288v80c0 26 20 48 48 48 25.997 0 48-22 48-48v-80h80c70.003 0 128-58 128-128v-640c0-72-57.997-128-128-128h-640c-72 0-128 56-128 128v640c0 70 56 128 128 128h80v80c0 26 20 48 48 48 26 0 48-22 48-48v-80zM160 64c0-17.997 14-32 32-32h640c16 0 32 14.003 32 32v512h-704v-512z" />
<glyph unicode="&#xe927;" glyph-name="chevron-right" d="M351 918.4l402.602-420.2c8.796-11 15.396-24.2 15.396-37.4s-6.6-26.399-15.396-35.2l-402.602-420.198c-19.8-22.001-55-22.001-74.8-2.202-22 19.799-22 52.803-2.2 74.798l369.6 385.002-369.6 382.8c-19.8 19.8-19.8 55 2.2 74.8 19.8 19.8 55 19.8 74.8-2.2z" />
<glyph unicode="&#xe928;" glyph-name="chevron-up" d="M34.737 271.79l442.316 423.789c13.895 11.579 27.79 18.526 41.684 18.526s25.476-4.632 37.053-13.895l442.314-423.789c23.159-23.158 23.159-57.895 2.317-78.735-20.841-23.159-55.582-23.159-78.735-2.317l-402.949 384.421-407.579-389.050c-20.842-20.846-57.895-20.846-78.737 2.312-20.842 23.16-20.842 57.896 2.316 78.739z" />
<glyph unicode="&#xe929;" glyph-name="engine" d="M640 678.4c20.801 0 38.4 16 38.4 38.4 0 20.8-17.599 38.4-38.4 38.4h-307.2c-22.4 0-38.4-17.6-38.4-38.4 0-22.4 16-38.4 38.4-38.4h115.2v-51.2h-243.2c-28.8 0-51.2-24-51.2-51.2v-89.6h-76.8v115.2c0 20.8-17.6 38.4-38.4 38.4-22.4 0-38.4-17.6-38.4-38.4v-307.2c0-22.398 16-38.4 38.4-38.4 20.8 0 38.4 16.002 38.4 38.4v115.2h76.8v-115.2c0-28.802 22.4-51.2 51.2-51.2h70.4l51.2-64c19.2-25.6 49.599-38.4 79.998-38.4h310.402c55.999 0 102.4 44.8 102.4 102.4v232c0 30.4-14.401 60.8-38.4 80l-62.399 49.6c-17.603 14.4-40.001 22.4-64 22.4h-129.601v51.2h115.2zM460.8 396.8c-28.802 0-51.2 22.4-51.2 51.2 0 27.2 22.398 51.2 51.2 51.2 27.201 0 51.2-24 51.2-51.2 0-28.8-23.999-51.2-51.2-51.2zM358.4 448c0-28.8-24-51.2-51.2-51.2-28.8 0-51.2 22.4-51.2 51.2 0 27.2 22.4 51.2 51.2 51.2 27.2 0 51.2-24 51.2-51.2zM614.4 396.8c-28.802 0-51.2 22.4-51.2 51.2 0 27.2 22.398 51.2 51.2 51.2 27.201 0 51.2-24 51.2-51.2 0-28.8-23.999-51.2-51.2-51.2zM921.6 550.4c-28.802 0-51.2-24-51.2-51.2v-307.2c0-28.802 22.398-51.2 51.2-51.2h51.2c27.201 0 51.2 22.398 51.2 51.2v307.2c0 27.2-23.999 51.2-51.2 51.2h-51.2z" />
<glyph unicode="&#xe92a;" glyph-name="facebook" d="M737.473 400.842l26.526 174.316h-168.631v113.684c0 49.263 22.737 94.737 98.526 94.737h77.684v149.684c0 0-70.106 13.263-136.421 13.263-138.316 0-229.263-85.263-229.263-236.842v-134.526h-155.368v-174.316h155.368v-424.421h189.474v424.421h142.105z" />
<glyph unicode="&#xe92b;" glyph-name="icons8-360-view-96-1" d="M0 960h1024v-1024h-1024v1024z" />
<glyph unicode="&#xe92c;" glyph-name="instagram" d="M512 706.588c-135.529 0-243.529-110.118-243.529-243.529 0-135.529 108-243.531 243.529-243.531 133.409 0 243.531 108.002 243.531 243.531 0 133.412-110.122 243.529-243.531 243.529zM512 304.236c-86.824 0-158.824 69.881-158.824 158.822 0 86.824 69.883 156.706 158.824 156.706 86.824 0 156.708-69.882 156.708-156.706 0-88.941-69.884-158.822-156.708-158.822zM821.176 715.059c0-31.764-25.413-57.176-57.175-57.176-31.768 0-57.175 25.411-57.175 57.176s25.407 57.177 57.175 57.177c31.762 0 57.175-25.411 57.175-57.177zM982.118 657.883c-4.235 76.235-21.179 144-76.234 199.058-55.061 55.059-122.826 72-199.060 76.235-78.355 4.235-313.413 4.235-391.766 0-76.236-4.235-141.882-21.177-199.059-76.235-55.059-55.059-72-122.823-76.235-199.058-4.235-78.353-4.235-313.415 0-391.763 4.235-76.24 21.177-141.884 76.235-199.060 57.177-55.061 122.823-71.999 199.059-76.234 78.353-4.241 313.411-4.241 391.766 0 76.234 4.235 143.998 21.173 199.060 76.234 55.055 57.175 71.999 122.82 76.234 199.060 4.235 78.348 4.235 313.41 0 391.763zM880.471 183.531c-14.824-42.357-48.706-74.12-88.943-91.058-63.53-25.413-211.763-19.064-279.528-19.064-69.883 0-218.117-6.349-279.529 19.064-42.353 16.938-74.118 48.7-91.059 91.058-25.412 61.41-19.059 209.645-19.059 279.528 0 67.765-6.353 216 19.059 279.529 16.941 40.235 48.706 72 91.059 88.942 61.412 25.411 209.647 19.058 279.529 19.058 67.765 0 215.998 6.353 279.528-19.058 40.237-14.824 71.999-48.706 88.943-88.942 25.413-63.529 19.058-211.764 19.058-279.529 0-69.883 6.355-218.118-19.058-279.528z" />
<glyph unicode="&#xe92d;" glyph-name="linkedin-in" d="M247.467-64h-198.4v637.867h198.4v-637.867zM147.2 659.2c-61.867 0-113.067 53.333-113.067 117.333 0 87.467 93.867 142.933 170.667 98.133 36.267-19.2 57.6-57.6 57.6-98.133 0-64-51.2-117.333-115.2-117.333zM987.737-64h-196.267v309.33c0 74.67-2.137 168.537-104.537 168.537s-117.333-78.933-117.333-162.133v-315.733h-198.4v637.867h189.867v-87.467h2.133c27.733 49.067 91.733 102.4 187.733 102.4 200.533 0 238.933-132.267 238.933-302.933v-349.867h-2.13z" />
<glyph unicode="&#xe92e;" glyph-name="location-dot" d="M555.294 18.824c97.882 122.35 318.118 414.118 318.118 579.765 0 199.529-161.882 361.412-361.412 361.412s-361.412-161.882-361.412-361.412c0-165.647 220.235-457.415 316.235-579.765 22.588-28.238 65.882-28.238 88.471 0zM512 478.118c-67.765 0-120.471 52.706-120.471 120.471 0 65.882 52.706 120.471 120.471 120.471 65.882 0 120.471-54.588 120.471-120.471 0-67.765-54.588-120.471-120.471-120.471z" />
<glyph unicode="&#xe92f;" glyph-name="plus" d="M987.429 448c0-31.998-25.142-54.857-54.857-54.857h-365.714v-365.714c0-31.998-25.142-57.144-54.857-57.144-32 0-54.857 25.147-54.857 57.144v365.714h-365.714c-32 0-54.857 22.86-54.857 52.57 0 32.001 22.857 57.144 54.857 57.144h365.714v365.714c0 29.714 22.857 52.571 54.857 52.571 29.716 0 54.857-22.857 54.857-52.571v-365.714h365.714c29.716 0 54.857-25.143 54.857-54.857z" />
<glyph unicode="&#xe930;" glyph-name="xmark" d="M948.364 753.455c37.818 34.909 37.818 96 0 130.909-34.909 37.818-96 37.818-130.909 0l-305.455-305.455-308.364 305.455c-34.909 37.818-96 37.818-130.909 0-37.818-34.909-37.818-96 0-130.909l305.455-305.455-305.455-308.364c-37.818-34.909-37.818-96 0-130.909 34.909-37.818 96-37.818 130.909 0l308.364 305.455 305.455-305.455c34.909-37.818 96-37.818 130.909 0 37.818 34.909 37.818 96 0 130.909l-305.455 308.364 305.455 305.455z" />
<glyph unicode="&#xe931;" glyph-name="youtube" d="M975.997 680.889c-10.661 42.667-44.442 76.444-85.333 87.111-76.442 21.333-378.664 21.333-378.664 21.333s-304 0-380.444-21.333c-40.889-10.667-74.667-44.444-85.333-87.111-21.333-74.667-21.333-234.667-21.333-234.667s0-158.222 21.333-234.664c10.667-42.667 44.444-74.672 85.333-85.333 76.444-19.558 380.444-19.558 380.444-19.558s302.222 0 378.664 19.558c40.892 10.661 74.672 42.667 85.333 85.333 21.333 76.442 21.333 234.664 21.333 234.664s0 160-21.333 234.667zM412.444 302.222v288l252.444-144-252.444-144z" />
<glyph unicode="&#xe932;" glyph-name="chevron-left" horiz-adv-x="605" d="M42.909 496c-28.364-26.179-28.364-71.999 0-98.181l418.909-418.909c26.183-28.365 72.002-28.365 98.179 0 28.365 26.182 28.365 72.001 0 98.178l-368.725 370.911 368.725 368.728c28.365 26.182 28.365 72 0 98.182-26.177 28.364-71.997 28.364-98.179 0l-418.909-418.909z" />
<glyph unicode="&#xe933;" glyph-name="circle-info1" horiz-adv-x="956" d="M477.867 908.8c263.202 0 477.867-214.667 477.867-477.867 0-265.066-214.665-477.867-477.867-477.867-265.066 0-477.867 212.801-477.867 477.867 0 263.2 212.8 477.867 477.867 477.867zM477.867 42.667c212.801 0 388.267 173.602 388.267 388.267 0 212.8-175.466 388.267-388.267 388.267-214.667 0-388.267-175.466-388.267-388.267 0-214.665 173.6-388.267 388.267-388.267zM552.533 281.6c24.267 0 44.8-20.535 44.8-44.803 0-26.132-20.533-44.797-44.8-44.797h-149.333c-26.133 0-44.8 18.664-44.8 44.797 0 24.269 18.667 44.803 44.8 44.803h29.867v119.467h-14.933c-26.133 0-44.8 18.667-44.8 44.8 0 24.267 18.667 44.8 44.8 44.8h59.733c24.267 0 44.8-20.533 44.8-44.8v-164.267h29.867zM477.867 550.4c-33.6 0-59.733 26.133-59.733 59.733 0 31.733 26.133 59.733 59.733 59.733 31.733 0 59.733-28 59.733-59.733 0-33.6-28-59.733-59.733-59.733z" />
<glyph unicode="&#xe934;" glyph-name="location-crosshairs" d="M512 960c34 0 64-30 64-64v-70c160-28 286.003-154 313.997-314h70.003c33.997 0 64-30 64-64 0-36-30.003-64-64-64h-70.003c-27.994-161.997-153.997-288-313.997-316v-68c0-36-30-64-64-64-36 0-64 28-64 64v68c-162 28-288 154.003-316 316h-68c-36 0-64 28-64 64 0 34 28 64 64 64h68c28 160 154 286 316 314v70c0 34 28 64 64 64zM256 448c0-142.003 114-256 256-256 140 0 256 113.997 256 256 0 140-116 256-256 256-142 0-256-116-256-256zM512 288c-90 0-160 70-160 160 0 88 70 160 160 160 88 0 160-72 160-160 0-90-72-160-160-160z" />
<glyph unicode="&#xe935;" glyph-name="tele-fix" horiz-adv-x="989" d="M247.172 818.759c0 67.586 54.069 123.586 123.586 123.586h374.622c32.828 0 65.656-13.517 88.827-36.69l55.999-56c23.174-23.172 36.691-56 36.691-88.827v-127.448h-123.586v127.448l-57.93 57.931h-374.622v-185.379h-123.586v185.379zM0 633.379c0 32.828 27.034 61.793 61.793 61.793h61.793c32.828 0 61.793-28.965 61.793-61.793v-617.931c0-34.76-28.965-61.793-61.793-61.793h-61.793c-34.759 0-61.793 27.034-61.793 61.793v617.931zM926.897 571.586c32.828 0 61.793-28.965 61.793-61.793v-494.345c0-34.76-28.965-61.793-61.793-61.793h-617.931c-34.759 0-61.793 27.034-61.793 61.793v556.138h679.724zM494.345 324.414c32.828 0 61.793 27.034 61.793 61.793 0 32.828-28.965 61.793-61.793 61.793-34.76 0-61.793-28.965-61.793-61.793 0-34.76 27.034-61.793 61.793-61.793zM803.31 386.207c0 32.828-28.965 61.793-61.793 61.793-34.76 0-61.793-28.965-61.793-61.793 0-34.76 27.034-61.793 61.793-61.793 32.828 0 61.793 27.034 61.793 61.793zM741.517 77.241c32.828 0 61.793 27.034 61.793 61.793 0 32.828-28.965 61.793-61.793 61.793-34.76 0-61.793-28.965-61.793-61.793 0-34.76 27.034-61.793 61.793-61.793zM556.138 139.034c0 32.828-28.965 61.793-61.793 61.793-34.76 0-61.793-28.965-61.793-61.793 0-34.76 27.034-61.793 61.793-61.793 32.828 0 61.793 27.034 61.793 61.793z" />
<glyph unicode="&#xe936;" glyph-name="timer" d="M512 960c281.997 0 512-230 512-512 0-284-230.003-512-512-512-284 0-512 228-512 512 0 142 58 272 152 364 26 26 66 26 92 0 24-26 24-66-2-90-70-70-114-168-114-274 0-212 172-384 384-384s384 172 384 384c0 190-140 348-320 378v-58c0-36-30-64-64-64-36 0-64 28-64 64v128c0 34 28 64 64 64zM386 642l160-160c18-20 18-50 0-68-20-20-50-20-68 0l-160 160c-20 18-20 48 0 68 18 18 48 18 68 0z" />
<glyph unicode="&#xe937;" glyph-name="gears" horiz-adv-x="1280" d="M208 608c0 60 50.001 112 112 112 60 0 112-52 112-112 0-61.999-52-112-112-112-61.999 0-112 50.001-112 112zM320 688c-45.999 0-80-36-80-80 0-45.999 34.001-80 80-80 44 0 80 34.001 80 80 0 44-36 80-80 80zM360 940c18.001-2 34.001-16 36-36l14.001-58c25.999-10 49.999-24 72-42l56 20c17.999 6 37.999 0 49.999-14 6.001-10 12-20 20-30l5.999-10c4.002-10 10.001-20 14.001-31.999 8-16 1.999-36.002-12-50.001l-44-40c1.999-12 4-26.001 4-40 0-16-2.001-29.999-4-42.001l44-40c13.999-11.998 20-32 12-49.999-4-9.999-9.999-22.001-14.001-32l-5.999-9.999c-8-10.001-13.999-20.002-20-30.001-12-14.001-32-20-49.999-14.001l-56 20.002c-22.001-18.001-46.001-32-72-42.001l-14.001-58.001c-1.999-19.998-17.999-33.999-36-35.998-13.999-2.001-28-2.001-40-2.001-13.999 0-28 0-42.001 2.001-17.999 1.999-33.999 16-35.998 35.998l-14.001 58.001c-26 10.001-50 24-72 42.001l-56-20.002c-18-5.999-38 0-50 14.001-6 9.999-14 20-20 30.001l-6 9.999c-4 9.999-10 22.001-14 32-8 17.999-2 38.001 12 49.999l44 40c-2 12.002-4 26.001-4 42.001 0 13.999 2 28 4 40l-44 40c-14 13.999-20 34.001-12 50.001 4 11.999 10 21.999 14 31.999l6 10c6 10 14 20 20 30 12 14 32 20 50 14l56-20c22 18 46 32 72 42l14.001 58c1.999 20 17.999 34 35.998 36 14.001 2 28.002 4 42.001 4 12 0 26.001-2 40-4zM320 912c-13.999 0-26.001-2-37.999-4-4.002 0-8-2-10.001-10l-16-76-16-6c-21.999-8-44-20-64-36l-12-12-74 26c-6 2-12-2-14-4-6-8-12-18-18-26l-6-10c-4-10-8-18-12-28.001-2-3.998-2-8 4-13.999l56-50.001-2-17.999c-2-12-2-24-2-36 0-13.999 0-26.001 2-37.999l2-16-56-52.002c-6-3.998-6-9.999-4-13.999 4-10.001 8-18.001 12-28l6-9.999c6-8 12-18.001 18-26.001 2-2.001 8-5.999 14-2.001l74 24 12-11.998c20-16 42.001-28.002 64-36.002l16-5.999 16-76c2.001-8 5.999-9.999 10.001-9.999 11.998-2.001 24-2.001 37.999-2.001 12 0 24 0 36 2.001 4 0 8 1.999 9.999 9.999l16 76 16 5.999c22.001 8 44.002 20.002 64 36.002l12.002 11.998 73.999-24c6.001-3.998 12 0 14.001 2.001 5.999 8 11.998 18.001 17.999 26.001l6.001 9.999c3.998 9.999 8 17.999 11.998 28 2.001 4 2.001 10.001-3.998 13.999l-56 52.002 1.999 16c1.999 11.998 4 24 4 37.999 0 12-2.001 24-4 36l-1.999 17.999 56 50.001c5.999 5.999 5.999 10.001 3.998 13.999-3.998 10.001-8 18.001-11.998 28.001l-6.001 10c-6.001 8-12 18-17.999 26-2.001 2-8 6-14.001 4l-73.999-26-12.002 12c-19.998 16-41.999 28-64 36l-16 6-16 76c-1.999 8-5.999 10-9.999 10-12 2-24 4-36 4zM928 144c-61.999 0-112 50.001-112 112 0 60 50.001 112 112 112 60 0 112-52 112-112 0-61.999-52-112-112-112zM848 256c0-45.999 34.001-80 80-80 44 0 80 34.001 80 80 0 44-36 80-80 80-45.999 0-80-36-80-80zM1090.001-40c-10.001-4-22.001-10.001-32-13.999-18.001-8-36.002-2.001-50.001 11.998l-40 44.002c-12-2.001-26.001-2.001-40-2.001-16 0-29.999 0-42.001 2.001l-40-44.002c-13.999-13.999-32-19.998-49.999-11.998-9.999 3.998-22.001 9.999-32 13.999l-9.999 8c-10.001 5.999-20.002 12-30.001 18.001-14.001 11.998-20 32-14.001 49.999l20.002 56c-18.001 22.001-32 46.001-42.001 73.999l-58.001 12.002c-19.998 3.998-33.999 17.999-35.998 35.998-2.001 14.001-2.001 28.002-2.001 42.001 0 12 0 26.001 2.001 40 1.999 18.001 16 34.001 35.998 37.999l58.001 12.002c10.001 25.999 24 49.999 42.001 72l-20.002 56c-5.999 17.999 0 37.999 14.001 49.999 9.999 6.001 20 14.001 30.001 20l9.999 5.999c9.999 4.002 20 10.001 32 14.001 17.999 8 36 1.999 49.999-12l40-44c12.002 1.999 26.001 4 42.001 4 13.999 0 28-2.001 40-4l40 44c13.999 13.999 32 20 50.001 12 11.998-4 21.999-9.999 32-14.001l9.999-5.999c9.999-5.999 20-13.999 30.001-20 13.999-12 19.998-32 13.999-49.999l-20-56c17.999-22.001 32-46.001 41.999-72l58.001-12.002c20-3.998 34.001-19.998 36-37.999 1.999-13.999 4-28 4-40 0-13.999-2.001-28-4-42.001-1.999-17.999-16-32-36-35.998l-58.001-12.002c-9.999-27.998-24-51.998-41.999-73.999l20-56c5.999-17.999 0-38.001-13.999-49.999-10.001-6.001-20.002-12.002-30.001-18.001l-9.999-8zM780-12c9.999-4 17.999-8 28-12 4-2.001 8-2.001 13.999 4l52.002 56 16-1.999c11.998-2.001 24-2.001 37.999-2.001 12 0 24 0 36 2.001l16 1.999 52-56c5.999-6.001 10.001-6.001 13.999-4 10.001 4 18.001 8 28.002 12l9.999 6.001c8 5.999 17.999 11.998 25.999 17.999 2.001 1.999 6.001 8 4.002 14.001l-26.001 73.999 12 12c16 20 28 42.001 36 64l5.999 16 76.002 16c8 2.001 9.999 5.999 9.999 10.001 1.999 11.998 4 24 4 37.999 0 12-2.001 24-4 36 0 4-1.999 8-9.999 9.999l-76.002 16-5.999 16c-8 24-20 44.002-36 64l-12 12.002 26.001 73.999c1.999 6.001-2.001 12-4.002 14.001-8 5.999-17.999 11.998-25.999 17.999l-9.999 6.001c-10.001 3.998-18.001 8-28.002 13.999-3.998 0-9.999 0-13.999-5.999l-52-56-16 1.999c-12 1.999-24 4-36 4-13.999 0-26.001-2.001-37.999-4l-16-1.999-52.002 56c-5.999 5.999-9.999 5.999-13.999 5.999-10.001-5.999-18.001-10.001-28-13.999l-9.999-6.001c-8-6.001-18.001-12-26.001-17.999-2.001-2.001-5.999-8-4-14.001l25.999-73.999-11.998-12.002c-16-19.998-28.002-40-36.002-64l-5.999-16-76-16c-8-1.999-9.999-5.999-9.999-9.999-2.001-12-4.002-24-4.002-36 0-13.999 2.001-26.001 4.002-37.999 0-4.002 1.999-8 9.999-10.001l76-16 5.999-16c8-21.999 20.002-44 36.002-64l11.998-12-25.999-73.999c-1.999-6.001 1.999-12.002 4-14.001 8-6.001 18.001-12 26.001-17.999l9.999-6.001z" />
<glyph unicode="&#xe938;" glyph-name="chart-network" horiz-adv-x="1280" d="M320 832c0 70 56 128 128 128 69.999 0 128-58 128-128 0-46-24-84-58.001-108l74.001-164c24 10.001 52 16 80 16 68 0 130.001-32 170.001-82.001l200 144c-12.002 18.001-18.001 42.001-18.001 66.001 0 70 56 128 128 128 69.999 0 128-58 128-128 0-72-58.001-128-128-128-36 0-68 13.999-92 36l-198.001-144c20.002-33.999 34.001-73.999 34.001-116 0-37.999-10.001-72-26.001-101.999l180.002-108.002c24 30.001 59.998 50.001 101.999 50.001 69.999 0 128-58.001 128-128 0-72-58.001-128-128-128-72 0-128 56-128 128 0 18.001 2.001 34.001 10.001 50.001l-180.002 107.998c-40-57.999-107.998-93.999-181.999-93.999-120 0-216 90.001-224 208h-194.001c-8-64-61.999-112-125.999-112-72 0-128 56-128 128 0 69.999 56 128 128 128 64 0 117.999-50.001 125.999-112h194.001c5.999 77.999 50.001 144 116 180l-76 161.999c-12-3.998-26.001-5.999-40-5.999-72 0-128 56-128 128zM448 736c52 0 96 42 96 96 0 52-44 96-96 96-53.999 0-96-44-96-96 0-54 42.001-96 96-96zM32 352c0-53.999 42-96 96-96 52 0 96 42.001 96 96 0 52-44 96-96 96-54 0-96-44-96-96zM1152-32c52 0 96 42.001 96 96 0 52-44 96-96 96-29.999 0-56-13.999-74.001-34.001l2.001-1.999-18.001-25.999c-3.998-10.001-5.999-22.001-5.999-34.001 0-53.999 42.001-96 96-96zM1152 608c52 0 96 42.001 96 96 0 52-44 96-96 96-53.999 0-96-44-96-96 0-53.999 42.001-96 96-96zM672 160c106.001 0 192 85.999 192 192s-85.999 192-192 192c-108 0-192-85.999-192-192s84-192 192-192z" />
<glyph unicode="&#xe939;" glyph-name="stopwatch" horiz-adv-x="853" d="M442.667 320c0-10.001-8-16-18.001-16-8 0-16 5.999-16 16v272c0 8 8 16 16 16 10.001 0 18.001-8 18.001-16v-272zM264.666 944c0 8 8 16 16 16h290.001c8 0 16-8 16-16 0-10-8-16-16-16h-128v-162c109.999-4 210.001-50 282.001-126l73.999 74.001c6.001 5.999 16 5.999 22.001 0 5.999-6.001 5.999-16 0-22.001l-74.001-76c60-72 96-164 96-264 0-229.999-188-416-416-416-230 0-416 186.001-416 416 0 224 176 406 400 414v162h-128c-10.001 0-16 6-16 16h-2.001zM424.666-32c214.001 0 386.001 172 386.001 384s-172 384-386.001 384c-211.999 0-383.999-172-383.999-384s172-384 383.999-384z" />
<glyph unicode="&#xe93a;" glyph-name="road" horiz-adv-x="1317" d="M585.143 960v-146.286c0-41.143 32-73.143 73.143-73.143 38.857 0 73.143 32 73.143 73.143v146.286h169.143c61.711 0 118.857-41.143 139.432-98.286l267.425-761.143c4.571-11.425 9.143-27.429 9.143-41.143 0-68.571-57.139-123.429-125.718-123.429h-459.425v146.286c0 38.853-34.286 73.143-73.143 73.143-41.143 0-73.143-34.289-73.143-73.143v-146.286h-461.714c-68.571 0-123.429 54.857-123.429 123.429 0 13.714 2.286 29.718 6.857 41.143l267.429 761.143c20.571 57.143 77.714 98.286 139.429 98.286h171.429zM731.429 521.143c0 38.857-34.286 73.143-73.143 73.143-41.143 0-73.143-34.286-73.143-73.143v-146.286c0-41.143 32-73.143 73.143-73.143 38.857 0 73.143 32 73.143 73.143v146.286z" />
<glyph unicode="&#xe93b;" glyph-name="gauge-high" d="M1024 448c0-284-230.003-512-512-512-284 0-512 228-512 512 0 282 228 512 512 512 281.997 0 512-230 512-512zM576 768c0 34-30 64-64 64-36 0-64-30-64-64 0-36 28-64 64-64 34 0 64 28 64 64zM512 128c70 0 128 56 128 128 0 33.997-14 66-38 88l130 292c10.003 24-2.003 52-26.003 62-24 12-51.994 0-61.997-24l-130-290h-2c-72 0-128-58-128-128 0-72 56-128 128-128zM352 672c0 34-30 64-64 64-36 0-64-30-64-64 0-36 28-64 64-64 34 0 64 28 64 64zM192 384c34 0 64 28 64 64 0 34-30 64-64 64-36 0-64-30-64-64 0-36 28-64 64-64zM896 448c0 34-30.003 64-64 64-36 0-64-30-64-64 0-36 28-64 64-64 33.997 0 64 28 64 64z" />
<glyph unicode="&#xe93c;" glyph-name="gas-pump" d="M64 832c0 70 56 128 128 128h320c70 0 128-58 128-128v-384h16c96 0 176-80 176-176v-64c0-28 20-48 48-48 25.997 0 48 20 48 48v308c-56 14-96 64-96 124v128l-64 64c-17.997 16-17.997 46 0 64 16 16 46.003 16 64 0l153.997-156c24-24 38.003-56 38.003-90v-442c0-80-65.997-144-144-144-80 0-144 64-144 144v64c0 44-36 80-80 80h-16v-288c33.997 0 64-30.003 64-64 0-36-30.003-64-64-64h-576c-36 0-64 28-64 64 0 33.997 28 64 64 64v768zM192 800v-192c0-18 14-32 32-32h256c16 0 32 14 32 32v192c0 16-16 32-32 32h-256c-18 0-32-16-32-32z" />
</font>
</defs>
</svg>
